找回密码
 立即注册

点击进入授权页面

只需一步,快速开始

QQ登录

只需一步,快速开始

查看: 803|回复: 41

图解音乐爱好者入门遇到的2个误区

[复制链接]

27

主题

531

帖子

4926

积分

实习版主

Rank: 7Rank: 7Rank: 7

积分
4926

活跃会员

QQ

实习版主

专业扫水三十年

发表于 2016-2-8 21:54:20 | 显示全部楼层 |阅读模式

误区.jpg
游客,如果您要查看本帖隐藏内容请回复
实验(1)别轻信所谓的音质检测工具
先看4组对比图片看完以后再给各位解释这两个资源的真相
详情见礼包附件
第2 个资源的效果会比第1个资源的效果要好很多吗?
哈哈  如果你是这么想的那就完全被忽悠了


实验(2)别轻信所谓的整轨+CUE资源就是抓取的资源
   相当简单的7步就可以做出一个假的整轨资源
   详情见礼包附件
游客,如果您要查看本帖隐藏内容请回复

温馨提示:
本资料旨在提醒朋友不要轻信某些所谓的绝对好资源,为了您的听觉享受不打折扣真正品尝原汁原味的上品音乐还是要全力支持正版一切非授权的网络资源仅仅只是为了引导你去欣赏某些类型的音乐 都是临时性的速食 觉得口感不错那就去官网入手第一手的正版资源吧  好了新年之际祝愿朋友们新年快乐 事事如意 合家福乐安康!

评分

参与人数 1积分 +3 收起 理由
芦苇荡1237 + 3 赞一个!

查看全部评分




上一篇:如何快捷把CD镜像nrg文件解成高保真单典?
下一篇:Whitney Houston精选集《ALL Time Best》[WAV+CUE/百度云]

27

主题

531

帖子

4926

积分

实习版主

Rank: 7Rank: 7Rank: 7

积分
4926

活跃会员

QQ

实习版主

专业扫水三十年

 楼主| 发表于 2016-2-8 22:26:46 | 显示全部楼层

礼包CUE曲目有点不对 更正如下 TRACK 01 AUDIO
    PERFORMER "MP3转换-杜宇恒"
    TITLE "猴年发财"
    INDEX 01 00:00:00

  TRACK 02 AUDIO
    PERFORMER "MP3转换-朱贝贝"
    TITLE "大圣贺猴年"
    INDEX 00 04:54:02
    INDEX 01 10:20:15

  TRACK 03 AUDIO
    PERFORMER "MP3转换-于月仙"
    TITLE "猴来居上"
    INDEX 00 10:20:15
    INDEX 01 14:20:23

  TRACK 04 AUDIO
    PERFORMER "MP3转换-王绎龙"
    TITLE "新年财运到"
    INDEX 00 14:20:23
    INDEX 01 17:37:19
回复 支持 反对

使用道具 举报

0

主题

3

帖子

4

积分

新手上路

Rank: 1

积分
4
发表于 2016-2-8 23:01:16 | 显示全部楼层
好者入门遇到
回复 支持 反对

使用道具 举报

0

主题

98

帖子

245

积分

中级会员

Rank: 3Rank: 3

积分
245
发表于 2016-2-9 08:02:26 | 显示全部楼层
kankan1111111111
回复 支持 反对

使用道具 举报

0

主题

36

帖子

22

积分

新手上路

Rank: 1

积分
22
发表于 2016-2-9 10:12:16 | 显示全部楼层
: 图解音乐爱好者入门遇到的2个误区 [修
回复 支持 反对

使用道具 举报

0

主题

70

帖子

5

积分

新手上路

Rank: 1

积分
5
发表于 2016-2-9 11:15:53 | 显示全部楼层
猴年发财感觉很好。
回复 支持 反对

使用道具 举报

0

主题

164

帖子

163

积分

中级会员

Rank: 3Rank: 3

积分
163
发表于 2016-2-9 15:45:55 | 显示全部楼层
谢谢分享下载听听
回复 支持 反对

使用道具 举报

27

主题

531

帖子

4926

积分

实习版主

Rank: 7Rank: 7Rank: 7

积分
4926

活跃会员

QQ
 楼主| 发表于 2016-2-9 16:54:34 | 显示全部楼层
dgwhs 发表于 2016-2-9 15:45
谢谢分享下载听听

技术讨论的帖子里面是没有试听资源的啦
回复 支持 反对

使用道具 举报

3

主题

268

帖子

369

积分

中级会员

Rank: 3Rank: 3

积分
369
QQ
发表于 2016-2-9 18:31:00 | 显示全部楼层

学点技术,谢啦,
回复 支持 反对

使用道具 举报

0

主题

13

帖子

17

积分

新手上路

Rank: 1

积分
17
发表于 2016-2-9 18:41:07 | 显示全部楼层

感谢分享经验!
回复 支持 反对

使用道具 举报

0

主题

897

帖子

962

积分

高级会员

Rank: 4

积分
962

活跃会员

发表于 2016-2-10 16:40:08 | 显示全部楼层

谢谢楼主,学习了你的经验。非常感谢1
回复 支持 反对

使用道具 举报

1

主题

107

帖子

716

积分

高级会员

Rank: 4

积分
716
发表于 2016-2-10 17:25:00 | 显示全部楼层
听君一席话,胜读十年书
回复 支持 反对

使用道具 举报

27

主题

531

帖子

4926

积分

实习版主

Rank: 7Rank: 7Rank: 7

积分
4926

活跃会员

QQ
 楼主| 发表于 2016-2-10 17:54:27 | 显示全部楼层
教父 发表于 2016-2-10 17:25
听君一席话,胜读十年书

我们有永远学不完的东西有待去接触哦 像这样的基本常识还是可以了解一下的嘛
回复 支持 反对

使用道具 举报

0

主题

122

帖子

633

积分

高级会员

Rank: 4

积分
633
发表于 2016-2-11 19:52:52 | 显示全部楼层
谢谢 学习学习
回复 支持 反对

使用道具 举报

您需要登录后才可以回帖 登录 | 立即注册  

本版积分规则 敬告:回复前请认真阅读无损音乐网规则,严打灌水,违规封号,永不解封。


无损音乐网交流QQ群 | 删帖申请/友情链接/商务合作:wind[at]fbi.org.in | 小黑屋| 工业和信息化部备案号:  广告联系QQ986419005

GMT+8, 2016-12-9 23:29

Powered by 无损音乐网

一个非营利性的高端无损音源分享网站!

快速回复 返回顶部 返回列表