找回密码
 立即注册

点击进入授权页面

只需一步,快速开始

QQ登录

只需一步,快速开始

查看: 325|回复: 5

[华语专辑] 关于CUE的问题

[复制链接]

1

主题

18

帖子

63

积分

新手上路

Rank: 1

积分
63
发表于 2016-2-8 14:46:38 | 显示全部楼层 |阅读模式
1积分
下面是我用EAC生成的CUE文件中的一段,前面都没问题,就是最后一首歌播放的时候时间是64分钟,是整张cd的时间,谁能帮我看下是怎么回事?
    INDEX 01 35:42:02
  TRACK 11 AUDIO
    INDEX 01 39:17:61
  TRACK 12 AUDIO
    INDEX 01 43:50:10
  TRACK 13 AUDIO
    INDEX 01 47:10:30
  TRACK 14 AUDIO
    INDEX 01 51:38:14
  TRACK 15 AUDIO
    INDEX 01 56:24:20
  TRACK 16 AUDIO
    INDEX 01 60:18:02
QQ截图20160208144743.png

最佳答案

查看完整内容

TRACK 15 AUDIO INDEX 01 56:24:20 TRACK 16 AUDIO INDEX 01 60:18:02 这里面是单时间码INDEX 01 56:24:20这个时间就是第15首结束的时间同时也是第16首开始的时间即56分24秒20 自己根据播放器显示的时间把不对的改正确就行了 超过60分钟的直接相加 例如:1小时5分30秒就写成 65:30:00就可以了



上一篇:谁有全程清唱歌曲专辑《无乐器声音》
下一篇:百度云下不了文件

27

主题

531

帖子

4926

积分

实习版主

Rank: 7Rank: 7Rank: 7

积分
4926

活跃会员

QQ
发表于 2016-2-8 14:46:39 | 显示全部楼层

  TRACK 15 AUDIO
    INDEX 01 56:24:20
  TRACK 16 AUDIO
    INDEX 01 60:18:02  这里面是单时间码INDEX 01 56:24:20这个时间就是第15首结束的时间同时也是第16首开始的时间即56分24秒20 自己根据播放器显示的时间把不对的改正确就行了 超过60分钟的直接相加 例如:1小时5分30秒就写成 65:30:00就可以了
回复

使用道具 举报

27

主题

531

帖子

4926

积分

实习版主

Rank: 7Rank: 7Rank: 7

积分
4926

活跃会员

QQ
发表于 2016-2-8 16:09:26 | 显示全部楼层
新年好 自己用记事本打开这个文件后修改一下时间码就可以了
回复

使用道具 举报

1

主题

18

帖子

63

积分

新手上路

Rank: 1

积分
63
 楼主| 发表于 2016-2-8 17:38:23 | 显示全部楼层
13424737359 发表于 2016-2-8 16:09
新年好 自己用记事本打开这个文件后修改一下时间码就可以了

新年好!时间码应该怎么修改才对?是要把60分修改成一小时吗?
回复

使用道具 举报

27

主题

531

帖子

4926

积分

实习版主

Rank: 7Rank: 7Rank: 7

积分
4926

活跃会员

QQ
发表于 2016-2-8 21:24:30 | 显示全部楼层
音乐小虾 发表于 2016-2-8 17:38
新年好!时间码应该怎么修改才对?是要把60分修改成一小时吗?

你打开CUE文件就可以自己慢慢看的嘛  例如: TRACK 02 AUDIO
    PERFORMER "MP3转换-双龙组合"
    TITLE "猴来居上"
    INDEX 00 04:54:02
    INDEX 01 10:20:15    “INDEX00后面是歌曲开始的时间  INDEX 01后面是歌曲结束的时间”
回复

使用道具 举报

1

主题

18

帖子

63

积分

新手上路

Rank: 1

积分
63
 楼主| 发表于 2016-2-8 23:37:00 | 显示全部楼层
13424737359 发表于 2016-2-8 21:30
TRACK 15 AUDIO
    INDEX 01 56:24:20
  TRACK 16 AUDIO

谢谢,我已经知道为什么了,我的cue文件没问题,只是播放器的问题,我直接用foobar2000就可以正常播放了,用酷狗超过一小时的cd最后一首总是会出错
回复

使用道具 举报

您需要登录后才可以回帖 登录 | 立即注册  

本版积分规则 敬告:回复前请认真阅读无损音乐网规则,严打灌水,违规封号,永不解封。


无损音乐网交流QQ群 | 删帖申请/友情链接/商务合作:wind[at]fbi.org.in | 小黑屋| 工业和信息化部备案号:  广告联系QQ986419005

GMT+8, 2016-12-10 10:59

Powered by 无损音乐网

一个非营利性的高端无损音源分享网站!

快速回复 返回顶部 返回列表