找回密码
 立即注册

点击进入授权页面

只需一步,快速开始

QQ登录

只需一步,快速开始

查看: 1313|回复: 42

陈淑桦《夕阳伴我归 限量复刻版》WAV/CUE百度

[复制链接]

2

主题

13

帖子

28

积分

新手上路

Rank: 1

积分
28
发表于 2014-8-25 02:37:01 | 显示全部楼层 |阅读模式
本帖最后由 xiaoxia 于 2014-8-25 02:37 编辑

00.jpg 02.jpg
专辑名称:夕阳伴我归 限量复刻版
歌手姓名:陈淑桦
唱片公司:可登唱片
发行公司:New Century Workshop
发行时间:2014年06月
专辑语言:国语
资源格式:WAV/CUE





专辑介绍:

  曾经一直觉得歌曲本身比演唱者更加重要,但是陈淑桦却让我知道了原来故事的诉说远比故事本身让人记忆深刻。

  和很多人一样,最早接触陈淑桦的歌曲也是来自那首《梦醒时分》,被其哀婉但是却又不失潇洒的曲调所吸引,更加因为陈淑桦那亲切而高贵的声色所折服。如果说邓丽君的歌声如同天使一般的纯美动人,那么陈淑桦则更像是一位高贵的哲人,将人生同爱情用音乐传达于你我。

  陈淑桦的歌声有种让人看透世事却又充满希望的魔力,正如《聪明糊涂心》中那句:“聪明看事情,糊涂一颗心”,着实令人顿生感悟。大气的气质配合着知性的风格,陈淑桦的歌曲几乎首首都有着将人吸引住的神秘力量,在你悲伤的时候,在你没落的时候,陈淑桦的歌会给你新的领悟;而当你得意之时,陈淑桦的歌同样会给你带来静静聆听和思考的空间。这就是陈淑桦。

  陈淑桦的已经年仅五十了,和我的妈妈一般大小了。但是岁月的流失并没有抹去她的音乐给人心灵留下的深深印记,即使是十年二十年,我想陈淑桦的歌声也不会仅仅成为怀旧的代表,而是作为一种带着旋律的哲学流淌在人们的心中!

  怀念淑桦……

  1982年,陈淑樺在那年的农曆年前,发行了本张专辑。专辑内收录了『夕阳伴我归』、『红楼梦』等经典名曲,并成为当年最畅销的专辑。
  那一年陈淑樺24岁,发行了两张专辑。



专辑曲目:

01.别走得太匆匆
02.小姑娘
03.情深依旧
04.四季歌
05.不要只爱一点点
06.烟雨斜阳
07.夕阳伴我归
08.红楼梦
09.明月寄情
10.最后一次携手
11.默许
12.改换

下载地址:

游客,如果您要查看本帖隐藏内容请回复






上一篇:吉克隽逸《吉克隽逸》[FLAC分轨/百度云]
下一篇:尔玛娜吉《祝福你》[FLAC分轨/百度云]

2

主题

13

帖子

28

积分

新手上路

Rank: 1

积分
28
 楼主| 发表于 2014-8-25 02:38:39
Exact Audio Copy V1.0 beta 3 from 29. August 2011

EAC extraction logfile from 20. August 2014, 12:40

陈淑桦 / 夕阳伴我归

Used drive : DTSOFT BDROM Adapter: 3 ID: 0

Read mode : Secure
Utilize accurate stream : Yes
Defeat audio cache : Yes
Make use of C2 pointers : No

Read offset correction : 0
Overread into Lead-In and Lead-Out : No
Fill up missing offset samples with silence : Yes
Delete leading and trailing silent blocks : No
Null samples used in CRC calculations : Yes
Used interface : Native Win32 interface for Win NT & 2000

Used output format : Monkey's Audio Lossless Encoder
Selected bitrate : High Lossless Compression
Quality : High
Add ID3 tag : Yes
Command line compressor : C:\Program Files\Monkey's Audio\MAC.exe


TOC of the extracted CD

Track | Start | Length | Start sector | End sector
---------------------------------------------------------
1 | 0:00.00 | 3:23.39 | 0 | 15263
2 | 3:23.39 | 2:48.37 | 15264 | 27900
3 | 6:12.01 | 2:47.14 | 27901 | 40439
4 | 8:59.15 | 3:16.10 | 40440 | 55149
5 | 12:15.25 | 4:06.09 | 55150 | 73608
6 | 16:21.34 | 3:17.09 | 73609 | 88392
7 | 19:38.43 | 2:54.55 | 88393 | 101497
8 | 22:33.23 | 4:03.54 | 101498 | 119776
9 | 26:37.02 | 3:18.64 | 119777 | 134690
10 | 29:55.66 | 3:04.08 | 134691 | 148498
11 | 32:59.74 | 3:14.57 | 148499 | 163105
12 | 36:14.56 | 2:13.07 | 163106 | 173087


Range status and errors

Selected range

Filename C:\Program Files\easyMule\Incoming\陈淑桦.-.[夕阳伴我归].专辑.(APE).wav

Peak level 96.5 %
Extraction speed 104.3 X
Range quality 100.0 %
Copy CRC 85E1777C
Copy OK

No errors occurred

End of status report
引用
REM DATE 2014
REM DISCID B109030C
REM COMMENT "ExactAudioCopy v1.0b3"
PERFORMER "陈淑桦"
TITLE "夕阳伴我归"
FILE "陈淑桦.-.[夕阳伴我归].专辑.(APE).ape" WAVE
TRACK 01 AUDIO
TITLE "别走得太匆匆"
PERFORMER "陈淑桦"
FLAGS DCP
INDEX 01 00:00:00
TRACK 02 AUDIO
TITLE "小姑娘"
PERFORMER "陈淑桦"
FLAGS DCP
INDEX 00 03:21:40
INDEX 01 03:23:39
TRACK 03 AUDIO
TITLE "情深依旧"
PERFORMER "陈淑桦"
FLAGS DCP
INDEX 00 06:10:01
INDEX 01 06:12:01
TRACK 04 AUDIO
TITLE "四季歌"
PERFORMER "陈淑桦"
FLAGS DCP
INDEX 00 08:57:15
INDEX 01 08:59:15
TRACK 05 AUDIO
TITLE "不要只爱一点点"
PERFORMER "陈淑桦"
FLAGS DCP
INDEX 00 12:13:25
INDEX 01 12:15:25
TRACK 06 AUDIO
TITLE "烟雨斜阳"
PERFORMER "陈淑桦"
FLAGS DCP
INDEX 00 16:19:35
INDEX 01 16:21:34
TRACK 07 AUDIO
TITLE "夕阳伴我归"
PERFORMER "陈淑桦"
FLAGS DCP
INDEX 00 19:36:43
INDEX 01 19:38:43
TRACK 08 AUDIO
TITLE "红楼梦"
PERFORMER "陈淑桦"
FLAGS DCP
INDEX 00 22:31:23
INDEX 01 22:33:23
TRACK 09 AUDIO
TITLE "明月寄情"
PERFORMER "陈淑桦"
FLAGS DCP
INDEX 00 26:35:02
INDEX 01 26:37:02
TRACK 10 AUDIO
TITLE "最后一次携手"
PERFORMER "陈淑桦"
FLAGS DCP
INDEX 00 29:53:66
INDEX 01 29:55:66
TRACK 11 AUDIO
TITLE "默许"
PERFORMER "陈淑桦"
FLAGS DCP
INDEX 00 32:58:00
INDEX 01 32:59:74
TRACK 12 AUDIO
TITLE "改换"
PERFORMER "陈淑桦"
FLAGS DCP
INDEX 00 36:12:57
INDEX 01 36:14:56
支持 反对

0

主题

564

帖子

1184

积分

高级会员

Rank: 4

积分
1184
发表于 2014-8-25 04:43:51 | 显示全部楼层
没能试听,不知怎样,但很感谢分享!
回复 支持 反对

使用道具 举报

1

主题

569

帖子

1316

积分

高级会员

Rank: 4

积分
1316

活跃会员

发表于 2014-8-25 08:45:22 | 显示全部楼层
不错怀旧音乐,谢谢了!!!!!!!!
回复 支持 反对

使用道具 举报

0

主题

718

帖子

1331

积分

高级会员

Rank: 4

积分
1331

活跃会员

发表于 2014-8-25 08:49:20 | 显示全部楼层
感谢楼主分享
回复 支持 反对

使用道具 举报

0

主题

376

帖子

438

积分

中级会员

Rank: 3Rank: 3

积分
438

活跃会员

发表于 2014-8-25 21:41:54 | 显示全部楼层
年轻时的偶像,留下美好的印象。
回复 支持 反对

使用道具 举报

0

主题

42

帖子

53

积分

新手上路

Rank: 1

积分
53
发表于 2014-8-26 00:53:10 | 显示全部楼层
怀旧音乐,谢谢
回复 支持 反对

使用道具 举报

0

主题

112

帖子

111

积分

新手上路

Rank: 1

积分
111
发表于 2014-8-26 08:56:11 | 显示全部楼层
我也下载,谢谢楼主分享。
回复 支持 反对

使用道具 举报

0

主题

150

帖子

355

积分

中级会员

Rank: 3Rank: 3

积分
355
发表于 2014-8-27 18:56:27 | 显示全部楼层
很感谢分享!{:soso_e100:}
回复 支持 反对

使用道具 举报

0

主题

566

帖子

4037

积分

论坛元老

Rank: 8Rank: 8

积分
4037

活跃会员

发表于 2014-8-27 20:00:07 | 显示全部楼层
OK,感谢楼主分享
回复 支持 反对

使用道具 举报

0

主题

140

帖子

196

积分

中级会员

Rank: 3Rank: 3

积分
196
发表于 2014-8-27 20:30:47 | 显示全部楼层
感谢楼主分享
回复 支持 反对

使用道具 举报

0

主题

53

帖子

66

积分

新手上路

Rank: 1

积分
66
发表于 2014-8-27 21:57:20 | 显示全部楼层
谢谢分享受生活
回复 支持 反对

使用道具 举报

0

主题

469

帖子

1780

积分

高级会员

Rank: 4

积分
1780
发表于 2014-10-22 07:26:08 | 显示全部楼层
很多歌曲已经记不起歌词,但是去掉依稀记得,多谢搂住.
回复 支持 反对

使用道具 举报

0

主题

19

帖子

24

积分

新手上路

Rank: 1

积分
24
发表于 2014-12-3 13:50:46 | 显示全部楼层
十分喜欢的音乐,值得收藏.
回复 支持 反对

使用道具 举报

您需要登录后才可以回帖 登录 | 立即注册  

本版积分规则 敬告:回复前请认真阅读无损音乐网规则,严打灌水,违规封号,永不解封。


无损音乐网交流QQ群 | 删帖申请/友情链接/商务合作:wind[at]fbi.org.in | 小黑屋| 工业和信息化部备案号:  广告联系QQ986419005

GMT+8, 2016-12-8 10:02

Powered by 无损音乐网

一个非营利性的高端无损音源分享网站!

快速回复 返回顶部 返回列表