找回密码
 立即注册

点击进入授权页面

只需一步,快速开始

QQ登录

只需一步,快速开始

查看: 4831|回复: 307

刘德华《倾情精选》(铁盒)(3CD)[WAVE/百度云]

  [复制链接]

2577

主题

2805

帖子

1万

积分

论坛元老

Rank: 8Rank: 8

积分
10541

活跃会员

发表于 2014-6-27 08:58:33 | 显示全部楼层 |阅读模式
本帖最后由 zhoukejian 于 2016-2-12 11:03 编辑

专辑名称 :刘德华《倾情精选》(铁盒)(3CD)[WAVE/百度云]  
      刘德华《倾情精选》(铁盒)(3CD)包括《The Melody Andy Vol.8 (新
曲+精选)》2CD和《天开了》。
专辑图片:

untitled.png 专辑简介:
    喜欢天王刘德华的歌迷,这张《The Melody Andy Vol.8 新曲+精选》绝对超
值,它共收录26首刘德华热门金曲,其中更有两首新歌,分别是连续剧《美丽人
生》主题曲“缺陷美”和国语新歌“天马行空”。另外还有“心蓝”“当我遇上
你”、“In Your Eyes”、“男人哭吧不是罪”、“享用我的姓”“爱你一万年
”、“笨小孩”、“我不够爱你”等1998-2000年的国、粤语超级主打歌,每一首
都是曾风靡市场的冠军歌曲,诚意推荐给大家!
      刘德华2001年发行出版的国语专辑《天开了》,缘起于刘德华在黄山拍摄
广告时遇上大雪被迫暂延拍摄。第二天一早,天开了,一袭单薄的白衣的刘德华
在冻僵的情况下用了4个多小时才完成了此次拍摄。当录完全部歌曲,并选中刘
德华在黄山松雪景前的照片做为封面时,刘德华便大胆提议以“天开了”做为专
辑名称。主打曲“我的心只可容纳你” 由刘德华填词,赵增熹作曲,藉由弦乐
表现山水的绵延与人类的深情,华仔唱来更显豪迈中的细致,兼容义气与深情;
“偷听女孩心” 轻松有趣,刘德华创作诫谐的词加上初次尝试的Rap曲风,提醒
男孩们除了有君子的外形外,还要有耐性;“一壶乡愁”是周杰伦特别为华仔写
的曲,将家乡喻为母亲的怀抱,对常常到外地工作的华仔来说,乡愁岂止一壶;
“空心”是继《男人哭吧不是罪》后再次在华仔的唱腔中见到急待释放的奔腾情
感;“腻了”是整张专辑中最早确认的一首歌,标准刘德华情歌模式。相处久了
,一方腻了,一方累了,谁愿意感情的结局如此不堪,但遇上了,唯有承受;“
踢出个未来”是陈德建与刘德华共同为周星驰和赵薇主演的电影《少林足球》创
作的主题曲;男男女女一生承诺天天相伴有情歌,愿意就没有怨言,愿意就不怕
苦,在这世上,我们往往愿意为错的人付出,不求回报,这就是“愿意”所要告
诉你的;而“专一只因为你”的轻松中带着稍许的紧张,是因为在乎,所以想去
解释,却又把过去说得太清楚,是一种恋爱中人常见的混乱,华仔的角色,正如
其电影中的扮相,恰如其分。
   
专辑目录:
《The Melody Andy Vol.8 (新曲+精选)》1
01 缺陷美
02 心蓝
03 当我遇上你
04 微笑
05 将自己给你
06 汗
07 痛
08 争气
09 挂念
10 爱无知
11 死剩把口
12 I’m Easy
13 In Your Eyes
《The Melody Andy Vol.8 (新曲+精选)》2
01 天马行空
02 男人哭吧哭吧不是罪
03 享用我的姓
04 你是我一生中最大的骄傲
05 爱你一万年
06 木鱼与金鱼
07 都怪我
08 笨小孩
09 天人水
10 去年烟花特别多
11 会说话的哑巴
12 ABCDE
13 我不够爱你
CD 3  《天开了》
01 我的心只可容纳你
02 偷听女孩心
03 一壶乡愁
04 空心
05 腻了
06 踢出一个未来
07 原来你才是天堂
08 愿意
09 其中一位
10 专一只因为你
11 我的心只可容纳你(有你真好版)
抓取日志:
Exact Audio Copy V1.0 beta 3 from 29. August 2011
EAC 抓取日志文件从27. 十月 2012, 8:47
未知艺术家 / 未知标题
使用驱动器  :PIONEER DVD-ROM DVD-130P   Adapter: 0  ID: 0
读取模式      : 可靠Secure
使用精确流     : 是
清空音频缓存    : 是
使用 C2 指示器 : 否
读取偏移校正:               : 6
读取 Lead-In 和 Lead-Out : 否
用静音填充抓取中丢失偏移的采样       : 是
去除首尾静音块               : 否
在CRC 计算中使用了空样本       : 是
已用接口                  : 已安装外部 ASPI 接口
所用输出模式: : 内部 WAV 函数
样本格式    : 44.100 Hz; 16 Bit; 立体声
已抓取 CD 的 TOC
     音轨 |    起始    |    长度    |  起始扇区  |  结束扇区  
    --------------------------------------------
      1 |  0:00.00 |  3:58.25 |      0 |  17874
      2 |  3:58.25 |  3:58.00 |  17875 |  35724
      3 |  7:56.25 |  4:29.62 |  35725 |  55961
      4 | 12:26.12 |  4:12.63 |  55962 |  74924
      5 | 16:39.00 |  3:10.62 |  74925 |  89236
      6 | 19:49.62 |  3:56.13 |  89237 | 106949
      7 | 23:46.00 |  3:37.37 | 106950 | 123261
      8 | 27:23.37 |  4:09.63 | 123262 | 141999
      9 | 31:33.25 |  3:47.12 | 142000 | 159036
     10 | 35:20.37 |  5:01.50 | 159037 | 181661
     11 | 40:22.12 |  3:26.13 | 181662 | 197124
     12 | 43:48.25 |  3:14.37 | 197125 | 211711
     13 | 47:02.62 |  3:15.13 | 211712 | 226349
范围状态及错误
已选择范围
     文件名 F:\刘德华《倾情精选》1\未知艺术家 - 未知标题.wav
     峰值电平 98.3 %
     抓取速度 3.1 X
     范围质量 100.0 %
     测试 CRC 957AC485
     复制 CRC 957AC485
     复制成功
没有错误发生
下载地址:[WAVE/百度云]
游客,如果您要查看本帖隐藏内容请回复


untitled.png



上一篇:齐秦《时代歌者》(铁盒)(3CD)[WAVE/百度云]
下一篇:汤灿《祝福祖国》专辑[APE/百度云]

0

主题

10

帖子

15

积分

新手上路

Rank: 1

积分
15
发表于 2014-6-27 09:37:15 | 显示全部楼层
缘起于刘德华在黄山拍摄
广告时遇上大雪被迫暂延拍摄。第二天一早,天开了
回复 支持 反对

使用道具 举报

0

主题

21

帖子

15

积分

新手上路

Rank: 1

积分
15
发表于 2014-6-27 10:11:11 | 显示全部楼层
很喜欢 感谢楼主
回复 支持 反对

使用道具 举报

0

主题

12

帖子

28

积分

新手上路

Rank: 1

积分
28
发表于 2014-6-27 14:36:59 | 显示全部楼层
最喜欢华仔的歌。
回复 支持 反对

使用道具 举报

0

主题

19

帖子

35

积分

新手上路

Rank: 1

积分
35
发表于 2014-6-27 21:50:50 | 显示全部楼层

很喜欢 感谢楼主
回复 支持 反对

使用道具 举报

0

主题

8

帖子

146

积分

新手上路

Rank: 1

积分
146
发表于 2014-7-3 16:04:12 | 显示全部楼层
不错,下载了,谢谢楼主
回复 支持 反对

使用道具 举报

0

主题

193

帖子

341

积分

中级会员

Rank: 3Rank: 3

积分
341
发表于 2014-7-13 20:55:09 | 显示全部楼层
刘德华的歌朗朗上口,不想某些歌手的歇斯底里。
回复 支持 反对

使用道具 举报

0

主题

16

帖子

28

积分

新手上路

Rank: 1

积分
28
发表于 2014-7-15 01:03:22 | 显示全部楼层
hhhhhhhhhhh
回复 支持 反对

使用道具 举报

0

主题

4

帖子

2

积分

新手上路

Rank: 1

积分
2
发表于 2014-7-15 08:46:23 | 显示全部楼层
华仔        好喜欢
回复 支持 反对

使用道具 举报

0

主题

100

帖子

122

积分

初级会员

Rank: 2

积分
122
发表于 2014-7-15 10:56:24 | 显示全部楼层
一直喜欢刘德华
回复 支持 反对

使用道具 举报

0

主题

13

帖子

23

积分

新手上路

Rank: 1

积分
23
发表于 2014-7-15 11:50:54 | 显示全部楼层
我最喜欢的歌手和艺人!!!!赞
回复 支持 反对

使用道具 举报

0

主题

7

帖子

19

积分

新手上路

Rank: 1

积分
19
发表于 2014-7-15 13:45:54 | 显示全部楼层
刘德华 最爱啊
回复 支持 反对

使用道具 举报

0

主题

9

帖子

7

积分

新手上路

Rank: 1

积分
7
发表于 2014-7-15 20:36:34 | 显示全部楼层
可看看咳咳咳咳咳咳咳咳咳咳咳咳咳咳咳咳咳咳
回复 支持 反对

使用道具 举报

您需要登录后才可以回帖 登录 | 立即注册  

本版积分规则 敬告:回复前请认真阅读无损音乐网规则,严打灌水,违规封号,永不解封。


无损音乐网交流QQ群 | 删帖申请/友情链接/商务合作:wind[at]fbi.org.in | 小黑屋| 工业和信息化部备案号:  广告联系QQ986419005

GMT+8, 2016-12-10 20:35

Powered by 无损音乐网

一个非营利性的高端无损音源分享网站!

快速回复 返回顶部 返回列表