找回密码
 立即注册

点击进入授权页面

只需一步,快速开始

QQ登录

只需一步,快速开始

查看: 3408|回复: 227

齐秦《时代歌者》(铁盒)(3CD)[WAVE/百度云]

  [复制链接]

2577

主题

2799

帖子

1万

积分

论坛元老

Rank: 8Rank: 8

积分
10510

活跃会员

发表于 2014-6-27 08:56:23 | 显示全部楼层 |阅读模式
本帖最后由 zhoukejian 于 2016-2-12 08:47 编辑

专辑名称 :齐秦《时代歌者》(铁盒)(3CD)[WAVE/百度云]  
    齐秦《时代歌者》(铁盒)(3CD)包括《丝路》、《痛并快乐着》和《齐
秦的世纪情歌之谜》。
专辑图片:
untitled.png
专辑简介:
    齐秦《时代歌者》专属于一个时代的悲伤情歌,在他的歌声里坍塌、柔软
和流泪都是一种归宿。曾经温暖心底的至爱,如今无怨无悔的珍藏,齐秦的歌
,你我同分享,让美好规律永远流淌。齐秦,曾经活跃的情感音符,几经磨难
又重回人们的记忆里 ,与他这名字并存的。
    齐秦在多年音乐探索之后向简约曲风回归的一张专辑《丝路》,专辑的启示
语里这样写道:“丝路不是一条路,而只是一个去处,那个地方只有方向而没有
尽头,很象是爱情。”是齐秦与王祖贤复合后出版的一张专辑,当时齐秦还成了
对爱情执着的绝佳榜样。但想想过去,再想想现在,不禁让人感慨———“音乐
比人生简单多了。”这么多年,有了不凡的生命经历后,心态成熟的齐秦懂得了
绚烂归于平淡,才是心与自然最近的熨贴。因此齐秦在〈丝路〉专辑里有了一次
“反朴归真”的革命,一如他在外表上的改变。这张专辑音乐风格平和,回复到
最原始的创作动机,很显然齐秦在往回探溯最初的自己。11首情诗的呐喊与激情
,在竖琴、吉他、钢琴宁静的交错声中,沿着心头的一条“丝路”走向爱情。齐
秦希望在繁复做作的流行音乐界,“让每首歌都找到素净的脸”,正如他所期待
的,“但愿风风雨雨之后,是心灵的云淡风清”。
    齐秦1995 出版《痛并快乐着》专辑,首度中美连线跨国音乐合作,由麦可
杰克森、理查马尔克斯及邦乔飞之制作班底为此专辑进行后制工作。单曲“往事
随风”获选为Channel V中文TOP20榜中榜最佳年度歌曲。出版《去年冬天》电影
原声带《命运的深渊》专辑,并参与此片演出。于新加坡举行《相约在冬季》演
唱会。开始歌唱生涯外之副业经营,与其兄齐鲁及好友开设餐厅-“齐辣”。创
作作品代表:放任分离(与许茹芸合唱)、命运的深渊、背影、尽头等。
    齐秦《齐秦的世纪情歌之谜》是齐秦的一张翻唱专辑。这些情歌多种风格,
但是在齐秦的演绎下仍是齐氏风味十足。经过重新电子配乐,也让这些经典老歌
充满新的魅力。很少有歌手能做到像齐秦那样,伴随两代人的情感成长直到现在
,也许齐氏情歌的魅力就在于此:一路听下来,起起落落,仿佛都能引起听者共
鸣。于是每一年,齐秦作品的推出都是歌迷瞩目的大事。在这张国语新大碟中,
齐秦翻唱了刘家昌、罗大佑、李宗盛、王菲、张学友、凤飞飞等原唱本世纪经典
情歌14首,星光灿烂、往事回途。专辑中大部分歌曲,都以齐秦独特的理解,做
了诠释,表达了齐秦的不容忘却的怀念方式,原唱与新唱很有不同,却皆令人赞
叹。
专辑目录:
DISC1《丝路》
01 沉默
02 不让我的眼泪陪我过夜
03 夜夜夜夜
04 寒雨
05 回来
06 拥挤
07 丝路
08 尘
09 火柴天堂  
10 想念
11 悬崖
12 不让我的眼泪陪我过夜 (Karaoke)  
DISC2《痛并快乐着》
01 痛并快乐着Ⅰ
02 往事随风
03 暴雨将至
04 袖手旁观
05 放任分离
06 不如这样吧
07 背影
08 尽头
09 贝多芬听不见自己的歌
10 痛并快乐着Ⅱ
DISC3《齐秦的世纪情歌之谜》
01 一无所有
02 月亮代表我的心  
03 情人的眼泪
04 恋曲1990
05 寂寞难耐
06 如果云知道
07 走在雨中
08 一场游戏一场梦
09 我愿意
10 魂萦旧梦
11 我是一片云
12 情网
13 我找到自己  
14 告别
抓取日志:
Exact Audio Copy V1.0 beta 3 from 29. August 2011
EAC 抓取日志文件从27. 十月 2012, 5:43
未知艺术家 / 未知标题
使用驱动器  :PIONEER DVD-ROM DVD-130P   Adapter: 0  ID: 0
读取模式      : 可靠Secure
使用精确流     : 是
清空音频缓存    : 是
使用 C2 指示器 : 否
读取偏移校正:               : 6
读取 Lead-In 和 Lead-Out : 否
用静音填充抓取中丢失偏移的采样       : 是
去除首尾静音块               : 否
在CRC 计算中使用了空样本       : 是
已用接口                  : 已安装外部 ASPI 接口
所用输出模式: : 内部 WAV 函数
样本格式    : 44.100 Hz; 16 Bit; 立体声
已抓取 CD 的 TOC
     音轨 |    起始    |    长度    |  起始扇区  |  结束扇区  
    --------------------------------------------
      1 |  0:00.00 |  4:33.37 |      0 |  20511
      2 |  4:33.37 |  4:33.13 |  20512 |  40999
      3 |  9:06.50 |  4:45.62 |  41000 |  62436
      4 | 13:52.37 |  4:35.00 |  62437 |  83061
      5 | 18:27.37 |  4:00.63 |  83062 | 101124
      6 | 22:28.25 |  5:01.00 | 101125 | 123699
      7 | 27:29.25 |  4:21.00 | 123700 | 143274
      8 | 31:50.25 |  4:19.37 | 143275 | 162736
      9 | 36:09.62 |  4:46.25 | 162737 | 184211
     10 | 40:56.12 |  4:46.25 | 184212 | 205686
     11 | 45:42.37 |  4:54.00 | 205687 | 227736
     12 | 50:36.37 |  4:36.00 | 227737 | 248436
范围状态及错误
已选择范围
     文件名 F:\齐秦《时代歌者》\未知艺术家 - 未知标题.wav
     峰值电平 95.3 %
     抓取速度 3.1 X
     范围质量 100.0 %
     复制 CRC 8F84D091
     复制成功
没有错误发生
下载地址:[WAVE/百度云]
游客,如果您要查看本帖隐藏内容请回复

untitled.png



上一篇:杨钰莹《君心似我心》专辑[WAVE整轨/百度云]
下一篇:刘德华《倾情精选》(铁盒)(3CD)[WAVE/百度云]

0

主题

21

帖子

15

积分

新手上路

Rank: 1

积分
15
发表于 2014-6-27 09:23:40 | 显示全部楼层
经典之作  感谢楼主
回复 支持 反对

使用道具 举报

0

主题

1788

帖子

889

积分

高级会员

Rank: 4

积分
889

活跃会员

发表于 2014-7-11 21:22:25 | 显示全部楼层
不错,正是我要的
回复 支持 反对

使用道具 举报

0

主题

195

帖子

199

积分

中级会员

Rank: 3Rank: 3

积分
199
发表于 2014-7-25 13:30:05 | 显示全部楼层
感谢楼主分享
回复 支持 反对

使用道具 举报

0

主题

11

帖子

23

积分

新手上路

Rank: 1

积分
23
发表于 2014-7-25 15:18:48 | 显示全部楼层
小哥,你还是相当值得尊敬的。
回复 支持 反对

使用道具 举报

0

主题

3

帖子

4

积分

新手上路

Rank: 1

积分
4
发表于 2014-7-26 09:20:42 | 显示全部楼层
心情不知怎么形容!谢谢楼主!
回复 支持 反对

使用道具 举报

0

主题

430

帖子

625

积分

高级会员

Rank: 4

积分
625
发表于 2014-7-26 09:49:43 | 显示全部楼层
好听。谢分享
回复 支持 反对

使用道具 举报

0

主题

11

帖子

34

积分

新手上路

Rank: 1

积分
34
发表于 2014-7-26 11:35:04 | 显示全部楼层
齐秦《时代歌者》
回复 支持 反对

使用道具 举报

0

主题

14

帖子

14

积分

新手上路

Rank: 1

积分
14
发表于 2014-7-26 11:53:37 | 显示全部楼层
经典之作  感谢楼主
回复 支持 反对

使用道具 举报

0

主题

29

帖子

42

积分

新手上路

Rank: 1

积分
42
发表于 2014-7-27 16:32:43 | 显示全部楼层
kai lu tu zi han  zi
回复 支持 反对

使用道具 举报

0

主题

36

帖子

10

积分

新手上路

Rank: 1

积分
10
发表于 2014-7-27 17:26:17 | 显示全部楼层
书法大赛复赛收发室
回复 支持 反对

使用道具 举报

0

主题

150

帖子

214

积分

中级会员

Rank: 3Rank: 3

积分
214
发表于 2014-7-27 17:41:02 | 显示全部楼层
HAO  GE  
回复 支持 反对

使用道具 举报

0

主题

35

帖子

45

积分

初级会员

Rank: 2

积分
45
发表于 2014-7-27 18:45:19 | 显示全部楼层
经典之作  感谢楼主
回复 支持 反对

使用道具 举报

0

主题

11

帖子

28

积分

初级会员

Rank: 2

积分
28
发表于 2014-7-27 21:46:23 | 显示全部楼层
哈哈哈HHHHH
回复 支持 反对

使用道具 举报

0

主题

105

帖子

117

积分

新手上路

Rank: 1

积分
117
发表于 2014-7-28 08:08:23 | 显示全部楼层
好东西必须要顶·
回复 支持 反对

使用道具 举报

0

主题

102

帖子

90

积分

新手上路

Rank: 1

积分
90
发表于 2014-7-28 18:41:02 | 显示全部楼层
很喜欢,多谢版主分享,先赞一个~~~
回复 支持 反对

使用道具 举报

您需要登录后才可以回帖 登录 | 立即注册  

本版积分规则 敬告:回复前请认真阅读无损音乐网规则,严打灌水,违规封号,永不解封。


无损音乐网交流QQ群 | 删帖申请/友情链接/商务合作:wind[at]fbi.org.in | 小黑屋| 工业和信息化部备案号:  广告联系QQ986419005

GMT+8, 2016-12-5 00:10

Powered by 无损音乐网

一个非营利性的高端无损音源分享网站!

快速回复 返回顶部 返回列表