找回密码
 立即注册

点击进入授权页面

只需一步,快速开始

QQ登录

只需一步,快速开始

查看: 2645|回复: 120

[流行] 刀郎《新歌+经典》[WAV/百度云]

  [复制链接]

2577

主题

2798

帖子

1万

积分

论坛元老

Rank: 8Rank: 8

积分
10507

活跃会员

发表于 2014-6-27 08:48:46 | 显示全部楼层 |阅读模式
本帖最后由 zhoukejian 于 2016-2-12 16:30 编辑

专辑名称 :刀郎《新歌+经典》 [WAV/百度云]
专辑图片:
untitled.png
专辑简介:
        
  刀郎原名罗林,中国流行乐坛传奇男歌手、音乐人。毕业于四川音乐学院作曲系,是新疆德威龙音像公司音乐总监,乌鲁木齐罗林音乐创作室首席制作人。内地第三位在香港红馆开唱的歌手。四川资中重龙镇人。
  刀郎《新歌+经典》专辑15首歌曲,大部分不与他的其他专辑重覆,很值得一听!合声演唱 孙 谦,吉他、司贝演奏孙 谦。
专辑目录:
01 感谢你(人声和声版)
02 阿瓦日古丽(风行版)
03 嘎达梅林
04 赶牲灵(信天游)
05 彩虹妹妹
06 美丽的草原我的爱
07 草原上升起不落的太阳
08 沙枣花儿香
09 吐鲁番的葡萄熟了
10 青春舞曲
11 乡恋
12 在那遥远的地方
13 在银色的月光下
14 怀念战友
15 祝福
Exact Audio Copy V1.0 beta 3 from 29. August 2011
EAC 抓取日志文件从9. 九月 2012, 16:22
未知艺术家 / 未知标题
使用驱动器  :PIONEER DVD-ROM DVD-130P   Adapter: 1  ID: 0
读取模式      : 可靠Secure
使用精确流     : 是
清空音频缓存    : 是
使用 C2 指示器 : 否
读取偏移校正:               : 6
读取 Lead-In 和 Lead-Out : 否
用静音填充抓取中丢失偏移的采样       : 是
去除首尾静音块               : 否
在CRC 计算中使用了空样本       : 是
已用接口                  : 已安装外部 ASPI 接口
间隙处理                  : 没检测到,因此追加到上一曲目
所用输出模式: : 内部 WAV 函数
样本格式    : 44.100 Hz; 16 Bit; 立体声
已抓取 CD 的 TOC
     音轨 |    起始    |    长度    |  起始扇区  |  结束扇区  
    --------------------------------------------
      1 |  0:00.00 |  4:06.17 |      0 |  18466
      2 |  4:06.17 |  3:07.05 |  18467 |  32496
      3 |  7:13.22 |  3:55.17 |  32497 |  50138
      4 | 11:08.39 |  2:56.04 |  50139 |  63342
      5 | 14:04.43 |  1:16.14 |  63343 |  69056
      6 | 15:20.57 |  3:07.53 |  69057 |  83134
      7 | 18:28.35 |  2:38.73 |  83135 |  95057
      8 | 21:07.33 |  4:08.68 |  95058 | 113725
      9 | 25:16.26 |  5:01.24 | 113726 | 136324
     10 | 30:17.50 |  2:31.71 | 136325 | 147720
     11 | 32:49.46 |  2:59.35 | 147721 | 161180
     12 | 35:49.06 |  4:15.34 | 161181 | 180339
     13 | 40:04.40 |  3:28.63 | 180340 | 196002
     14 | 43:33.28 |  3:58.16 | 196003 | 213868
     15 | 47:31.44 |  3:20.04 | 213869 | 228872
音轨  1
     文件名 F:\刀郎《新歌+经典》\音轨01.wav
     峰值电平 98.0 %
     抓取速度 1.8 X
     音轨质量 100.0 %
     复制 CRC 386B7CF8
     复制成功
音轨  2
     文件名 F:\刀郎《新歌+经典》\音轨02.wav
     峰值电平 98.0 %
     抓取速度 0.9 X
     音轨质量 100.0 %
     复制 CRC 45DEEEAD
     复制成功
音轨  3
     文件名 F:\刀郎《新歌+经典》\音轨03.wav
     峰值电平 98.0 %
     抓取速度 1.0 X
     音轨质量 100.0 %
     复制 CRC 8448E56B
     复制成功
音轨  4
     文件名 F:\刀郎《新歌+经典》\音轨04.wav
     峰值电平 98.0 %
     抓取速度 1.1 X
     音轨质量 100.0 %
     复制 CRC D62262AB
     复制成功
音轨  5
     文件名 F:\刀郎《新歌+经典》\音轨05.wav
     峰值电平 98.0 %
     抓取速度 0.9 X
     音轨质量 100.0 %
     复制 CRC 8ED5B9BA
     复制成功
音轨  6
     文件名 F:\刀郎《新歌+经典》\音轨06.wav
     峰值电平 98.0 %
     抓取速度 1.1 X
     音轨质量 100.0 %
     复制 CRC 8A17CFC3
     复制成功
音轨  7
     文件名 F:\刀郎《新歌+经典》\音轨07.wav
     峰值电平 98.0 %
     抓取速度 1.1 X
     音轨质量 100.0 %
     复制 CRC AD4183B6
     复制成功
音轨  8
     文件名 F:\刀郎《新歌+经典》\音轨08.wav
     峰值电平 98.0 %
     抓取速度 1.3 X
     音轨质量 100.0 %
     复制 CRC 8CB9C917
     复制成功
音轨  9
     文件名 F:\刀郎《新歌+经典》\音轨09.wav
     峰值电平 98.0 %
     抓取速度 1.4 X
     音轨质量 100.0 %
     复制 CRC E1EC3E5C
     复制成功
音轨 10
     文件名 F:\刀郎《新歌+经典》\音轨10.wav
     峰值电平 98.0 %
     抓取速度 1.3 X
     音轨质量 100.0 %
     复制 CRC FCFACE7E
     复制成功
音轨 11
     文件名 F:\刀郎《新歌+经典》\音轨11.wav
     峰值电平 98.0 %
     抓取速度 1.4 X
     音轨质量 100.0 %
     复制 CRC 3FA3143A
     复制成功
音轨 12
     文件名 F:\刀郎《新歌+经典》\音轨12.wav
     峰值电平 98.0 %
     抓取速度 1.6 X
     音轨质量 100.0 %
     复制 CRC 4248EAC8
     复制成功
音轨 13
     文件名 F:\刀郎《新歌+经典》\音轨13.wav
     峰值电平 98.0 %
     抓取速度 1.4 X
     音轨质量 99.9 %
     复制 CRC CF9C6292
     复制成功
音轨 14
     文件名 F:\刀郎《新歌+经典》\音轨14.wav
     峰值电平 98.0 %
     抓取速度 1.7 X
     音轨质量 100.0 %
     复制 CRC 98B4F5EC
     复制成功
音轨 15
     文件名 F:\刀郎《新歌+经典》\音轨15.wav
     峰值电平 98.0 %
     抓取速度 1.6 X
     音轨质量 100.0 %
     复制 CRC 041DA1C4
     复制成功
没有错误发生
状态报告结尾
试听14 怀念战友

下载地址: [WAV/百度云]
游客,如果您要查看本帖隐藏内容请回复



untitled.png

评分

参与人数 1积分 +3 收起 理由
福到 + 3 赞一个!支持发帖!

查看全部评分




上一篇:精雕细致的嗓音:群星《女人情的诱惑》[WAV/CUE]
下一篇:杨钰莹《君心似我心》专辑[WAVE整轨/百度云]

0

主题

933

帖子

1400

积分

高级会员

Rank: 4

积分
1400

活跃会员

发表于 2014-6-27 09:15:15 | 显示全部楼层
谢谢楼主非常好听
回复 支持 反对

使用道具 举报

0

主题

21

帖子

15

积分

新手上路

Rank: 1

积分
15
发表于 2014-6-27 09:22:18 | 显示全部楼层
经典之作  感谢楼主
回复 支持 反对

使用道具 举报

0

主题

66

帖子

104

积分

新手上路

Rank: 1

积分
104
QQ
发表于 2014-6-27 09:31:05 | 显示全部楼层
刀郎好歌,值得收藏
回复 支持 反对

使用道具 举报

0

主题

133

帖子

220

积分

禁止发言

积分
220
发表于 2014-6-27 09:40:49 | 显示全部楼层
提示: 作者被禁止或删除 内容自动屏蔽
回复 支持 反对

使用道具 举报

1

主题

489

帖子

633

积分

高级会员

Rank: 4

积分
633

活跃会员

发表于 2014-6-27 09:45:58 | 显示全部楼层
仓凉的歌声唱出西北汉子的真诚与无奈!
回复 支持 反对

使用道具 举报

1

主题

565

帖子

1296

积分

高级会员

Rank: 4

积分
1296

活跃会员

发表于 2014-6-27 09:52:00 | 显示全部楼层
仓凉的歌声唱出西北汉子的真诚
回复 支持 反对

使用道具 举报

0

主题

501

帖子

587

积分

高级会员

Rank: 4

积分
587
发表于 2014-7-1 15:06:11 | 显示全部楼层
刀郎新歌,非常喜欢。
回复 支持 反对

使用道具 举报

0

主题

389

帖子

415

积分

中级会员

Rank: 3Rank: 3

积分
415
发表于 2014-7-1 18:33:15 | 显示全部楼层
好听的音乐,谢谢分享!
回复 支持 反对

使用道具 举报

1

主题

565

帖子

1296

积分

高级会员

Rank: 4

积分
1296

活跃会员

发表于 2014-7-3 15:11:13 | 显示全部楼层
唱歌的真的刀郎吗??????
回复 支持 反对

使用道具 举报

0

主题

7

帖子

12

积分

新手上路

Rank: 1

积分
12
发表于 2014-7-3 17:47:25 | 显示全部楼层
好歌曲产生的好地方
回复 支持 反对

使用道具 举报

0

主题

69

帖子

314

积分

中级会员

Rank: 3Rank: 3

积分
314
发表于 2014-7-3 18:54:18 | 显示全部楼层
听听怎么样。。
回复 支持 反对

使用道具 举报

0

主题

35

帖子

44

积分

新手上路

Rank: 1

积分
44
发表于 2014-7-3 19:10:28 | 显示全部楼层
这些歌艰经典呀,太喜欢了,谢谢分享!!
回复 支持 反对

使用道具 举报

您需要登录后才可以回帖 登录 | 立即注册  

本版积分规则 敬告:回复前请认真阅读无损音乐网规则,严打灌水,违规封号,永不解封。


无损音乐网交流QQ群 | 删帖申请/友情链接/商务合作:wind[at]fbi.org.in | 小黑屋| 工业和信息化部备案号:  广告联系QQ986419005

GMT+8, 2016-12-3 23:36

Powered by 无损音乐网

一个非营利性的高端无损音源分享网站!

快速回复 返回顶部 返回列表